<svg xmlns="http://www.w3.org/2000/svg">
<defs>
<font id="FontID8" horiz-adv-x="711" font-variant="normal" style="fill-rule:nonzero" font-style="normal,italic" font-weight="700" horiz-origin-x="0" horiz-origin-y="0" vert-origin-x="512" vert-origin-y="768" vert-adv-y="1024"><font-face font-family="Humnst777 BT" id="font-face1"><font-face-src><font-face-name name="Humnst777 BT Bold Italic"/></font-face-src></font-face><missing-glyph id="missing-glyph1"><path d="M0 0z" id="path1"/></missing-glyph><glyph unicode="-" horiz-adv-x="331" d="M32.002 332.005h260.003L272 234.995H11.996l20.006 97.01z" id="glyph1"/><glyph unicode="F" horiz-adv-x="507" d="M149.995 694.006h410.011l-22.012-101.008H266.169l-40-186.999h260.66l-20.997-100.995H205.173L140.166 0H2.996l146.999 694.006z" id="glyph2"/><glyph unicode="K" horiz-adv-x="657" d="M150.837 694.006h137.33l-63.001-298.01 308 298.01h170.83L347.17 362.83 586.832 0H426.66L212.835 340.831 141.167 0H2.994l147.842 694.006z" id="glyph3"/><glyph unicode="e" horiz-adv-x="566" d="m507.837 220.993-362.83-.495c-.334-1.992-.508-4.159-.669-6.834-.174-2.66-.334-6.499-.334-11.661 0-38.341 12.665-68.337 37.833-89.842C207.166 90.671 242.498 80 288.168 80c26.332 0 51.661 2.66 75.666 7.997 24.166 5.336 47.662 13.667 70.33 24.673l-7.168-99.336c-27.83-9.495-55.325-16.503-82.834-21.33-27.496-4.668-55.66-7.008-84.332-7.008-74.823 0-133.826 20.835-176.661 62.667-42.835 41.832-64.165 99.51-64.165 172.676 0 39.665 7.329 78.501 21.999 116.16 14.67 37.833 35.332 70.999 61.999 99.671 28.672 30.491 59.832 52.824 93.492 66.826 33.674 14.002 73.179 21.01 118.34 21.01 62.828 0 112.496-18.335 148.671-55.005 36.335-36.67 54.496-86.672 54.496-150.329 0-13.667-.829-28.672-2.5-44.84-1.498-16.329-4.173-33.995-7.663-52.838zm-104.833 81.002c.334.669.495 1.832.495 3.343 1.003 11.167 1.498 19.325 1.498 24.995 0 33.66-8.666 60.006-25.824 78.662-17.345 18.669-41.671 28.003-72.844 28.003-34.664 0-65.168-11.996-91.66-36-26.667-24.166-45.002-56.998-55.5-99.003h243.835z" id="glyph4"/><glyph unicode="i" horiz-adv-x="287" d="M120.828 507.997H250L141.837 0H11.996l108.832 507.997zm151.171 92.008h-134l26.84 130.991H299l-27-130.99z" id="glyph5"/><glyph unicode="r" horiz-adv-x="404" d="m434.003 512.33-29.341-115.492a284.849 284.849 0 0 1-31.828 7.489 181.434 181.434 0 0 1-31 2.675c-41.337 0-73.673-12.839-96.662-38.342-23.176-25.489-41.51-69.5-55.178-131.994L139.162 0H3.998l105.007 510.003h120.988l-17.987-87.34c25.664 34.676 51.487 59.832 77.325 75.666 25.837 15.834 54 23.67 84.666 23.67 8.505 0 17.505-.829 27.335-2.327a337.325 337.325 0 0 0 32.67-7.342z" id="glyph6"/><glyph unicode="s" horiz-adv-x="454" d="m433.334 493.166-31.173-94.335c-21.33 10.672-42.66 18.669-64.165 24.165-21.491 5.336-43.169 7.998-64.994 7.998-27.67 0-49.669-5.162-65.837-15.66C190.997 404.996 183 391.168 183 373.836c0-20.835 23.336-43.663 69.995-68.832 11.675-6.5 20.675-11.501 26.84-15.005 39.826-22.494 67.335-44.172 82.5-64.994 15.166-20.835 22.668-46.178 22.668-76 0-48.17-20.675-87.341-61.998-117.671-41.337-30.17-96.007-45.336-163.676-45.336a519.811 519.811 0 0 0-90.992 7.998C38.5-.668 9 7.503-20.007 18.16l29.836 98c20.5-11.328 41.831-19.66 64.004-25.156 22-5.335 45.83-8.01 71.173-8.01 34.49 0 61.156 5.336 79.825 15.834 18.83 10.672 28.164 25.677 28.164 45.175 0 21.825-24.66 46.164-73.834 73.165a391.035 391.035 0 0 0-14.162 7.837c-42.327 23.496-71.173 45.496-86.338 65.997-15.165 20.501-22.668 45.496-22.668 75.158 0 46.338 19.512 83.837 58.669 112.67 39.17 28.832 90.831 43.168 155.504 43.168 25.329 0 51.5-2.326 78.661-7.168 27-4.667 55.178-11.835 84.506-21.664z" id="glyph7"/><glyph unicode="t" horiz-adv-x="398" d="m317.829 671.004-34.663-163.007h126.832l-19.993-95.004H263.173l-46.339-218.158c-2.34-10.337-3.999-19.672-5.162-28.003-1.177-8.332-1.672-15.5-1.672-21.665 0-18.335 4.828-32.163 14.67-41.832C234.34 93.827 248.503 89 266.998 89c7.503 0 16.008.83 25.503 2.661a316.64 316.64 0 0 1 30.665 7.677L302.664 1.832c-15.326-2.995-29.662-5.162-43.17-6.66-13.493-1.51-25.997-2.166-37.498-2.166-46.833 0-82.66 11.661-107.668 34.998-24.834 23.336-37.325 56.662-37.325 99.992 0 11.006.335 21.01 1.164 29.836.829 8.665 2.166 16.837 3.664 24.339l49 230.823H27.83l20.006 95.004h103.991l26.346 123.007 139.657 40z" id="glyph8"/><glyph unicode="u" horiz-adv-x="625" d="M98 506.994h132.996L174.83 240.17c-2.327-12.664-3.999-23.67-5.162-32.831-1.164-9-1.672-17.506-1.672-25.343 0-27.335 7.168-48.665 21.504-63.99 14.336-15.34 34.169-23.003 59.498-23.003 38.501 0 71.172 15.326 98.173 46.165 27.161 30.825 46.66 74.997 58.669 132.663l50.323 233.163H589L480.996 0h-121l20.006 85.83c-25.838-32.163-54.497-56.663-86.338-73.5C261.996-4.494 228.67-13 193.832-13 145.006-13 106.17 2.5 77.337 33.34c-28.833 30.998-43.343 72.83-43.343 125.828 0 14.67 1.177 31.494 3.678 50.498 2.5 19.164 6.165 40.494 10.993 64.165l49.334 233.163z" id="glyph9"/><glyph unicode="v" horiz-adv-x="541" d="M37.993 507.997h131.834l46.005-398.163 206.002 398.163h139.162L265.995-2.996H117.164l-79.17 510.993z" id="glyph10"/></font><font id="FontID7" horiz-adv-x="681" font-variant="normal" style="fill-rule:nonzero" font-weight="700" horiz-origin-x="0" horiz-origin-y="0" vert-origin-x="512" vert-origin-y="768" vert-adv-y="1024"><font-face font-family="Humnst777 BT" id="font-face10"><font-face-src><font-face-name name="Humnst777 BT Bold"/></font-face-src></font-face><missing-glyph id="missing-glyph10"><path d="M0 0z" id="path10"/></missing-glyph><glyph unicode="," horiz-adv-x="295" d="M100.005 128.999h129.988l-89-246.001H37.004l63.001 246.001z" id="glyph11"/><glyph unicode="F" horiz-adv-x="513" d="M77.003 694.006h403.993V592.998H215.002V404.007h254V301.996h-254V.001H77.003v694.006z" id="glyph12"/><glyph unicode="e" horiz-adv-x="550" d="M524.995 259v-41.002h-357c3.678-42.661 20.167-76.496 49.508-100.995 29.501-24.674 68.324-37.004 116.495-37.004 26.332 0 52.009 3.17 76.83 9.334a307.54 307.54 0 0 1 72.001 27.67V17.17C458.17 7.168 431.503-.495 402.83-5.497c-28.659-5.001-59.324-7.502-91.834-7.502-84.666 0-150.824 24.326-198.5 73.005-47.662 48.665-71.494 116-71.494 202.324 0 76.669 23.163 138.84 69.662 186.33 46.338 47.501 106.839 71.346 181.342 71.346 73.66 0 130.83-22.842 171.659-68.511 40.828-45.657 61.33-109.835 61.33-192.495zm-117.992 40c-3.504 42.834-15.674 76.334-36.175 100.166-20.327 23.83-46.993 35.84-79.825 35.84-33.5 0-61.17-12.01-83.008-35.84-21.825-23.832-35.158-57.332-40-100.166h239.008z" id="glyph13"/><glyph unicode="t" horiz-adv-x="401" d="M250 671.004V506.005h122.004v-96.007H250V188.002c0-37.833 5.83-65.007 17.506-81.336 11.822-16.503 30.999-24.66 57.665-24.66 6.834 0 14.497.655 23.002 2.166 8.492 1.498 17.332 3.664 26.827 6.66L377.006.001c-14.336-3.999-29.007-6.834-44.172-8.666-15.165-1.832-30.504-2.996-45.67-3.33-59.992 0-103 14.83-128.999 44.332-26.171 29.662-39.17 78.836-39.17 147.828v229.833H19.003v96.007H124.84v122.994L250 671.005z" id="glyph14"/></font><font id="FontID4" horiz-adv-x="682" font-variant="normal" style="fill-rule:nonzero" font-style="normal,italic" font-weight="400" horiz-origin-x="0" horiz-origin-y="0" vert-origin-x="512" vert-origin-y="768" vert-adv-y="1024"><font-face font-family="Humnst777 BT" id="font-face14"><font-face-src><font-face-name name="Humnst777 BT Italic"/></font-face-src></font-face><missing-glyph id="missing-glyph14"><path d="M0 0z" id="path14"/></missing-glyph><glyph unicode="." horiz-adv-x="287" d="M48 104h102.016L128 0H26.016l21.985 104z" id="glyph15"/><glyph unicode="@" horiz-adv-x="1000" d="m626.992 417.008 27.843 56h64.503L648 192c-1.323-5.165-2.33-10.173-2.992-15.181C644.346 172 644 167.496 644 163.18c0-14.835 4.157-26.362 12.504-34.173 8.315-7.843 20.504-11.685 36.315-11.685 15.685 0 32.346 4.346 50.173 13.008 17.67 8.661 35.024 20.85 52 36.85 26.016 24.662 46.33 55.15 61.008 90.992 14.677 36 22.015 73.985 22.015 114.173 0 84.315-31.023 152.661-93.007 204.976-62.016 52.504-143.34 78.678-244 78.678-43.339 0-83.339-4.504-120.19-13.67-36.66-9.165-70.992-23.15-102.991-41.984-62.174-37.165-110.331-85.858-144.504-146.331-34.142-60.347-51.308-127.024-51.308-200 0-57.67 9.985-107.843 29.985-150.52 20-42.677 51.338-80.158 94.015-112.315 32.662-25.008 71.15-44.347 115.496-57.858 44.504-13.48 91.308-20.315 140.504-20.315 54.993 0 108.472 8 160.315 24 52 15.81 99.685 38.834 142.835 68.819l26.993-40.158c-48.158-36-99.339-63.181-153.67-81.323-54.141-18.173-110.991-27.338-170.487-27.338-61.827 0-118.488 7.653-169.984 22.992-51.339 15.338-96.85 37.984-136.693 68.346-49.985 38.33-87.497 82.992-112.157 133.827C64.347 133.007 52 190.487 52 254.992c0 53.669 8.504 104.66 25.323 152.85 17.008 48.157 41.512 92 73.67 131.338 47.495 57.985 104.85 101.984 171.684 131.811C389.513 701.007 463.498 716 544.82 716c53.197 0 103.528-7.338 151.34-21.984 47.842-14.677 89.007-35.339 123.495-62.016 42.362-32.661 74.52-70.173 96.347-112.819 22.015-42.677 33.008-88.85 33.008-138.362 0-56.976-10.331-108.157-30.992-153.827-20.693-45.48-50.678-84-90.016-115.339-22.173-17.48-46.488-30.992-73.008-40.472-26.488-9.355-53.48-14.173-81.165-14.173-32.158 0-56.504 6.488-73.008 19.338-16.315 12.977-24.662 32.158-24.662 57.67v9.165c-17.827-29.008-38.834-50.52-62.992-64.347-24-13.827-52-20.819-83.842-20.819-49.827 0-87.811 13.827-113.984 41.48-26.174 27.686-39.339 67.843-39.339 120.505 0 76.504 22.488 140.66 67.339 192.346 45.008 51.81 100.157 77.669 165.48 77.669 27.685 0 51.338-6.016 71.023-18.173 19.654-12.19 35.496-30.52 47.15-54.835zM581.008 232l28.819 115.181c-5.48 28.661-16.662 50.835-33.323 66.33-16.85 15.654-37.827 23.497-63.339 23.497-44.819 0-82.677-21.166-113.323-63.496-30.52-42.174-45.827-94.174-45.827-155.685 0-34.174 7.811-60.504 23.654-78.992 15.842-18.489 38.173-27.843 67.15-27.843 31.527 0 60 11.181 85.196 33.67 25.323 22.52 42.331 51.495 50.993 87.338z" id="glyph16"/><glyph unicode="K" horiz-adv-x="627" d="M158.995 694.006h97.678l-62.011-297.007 338.504 297.007h129.828L278.672 367.337 548.666 0H434.005L183 347.331 109.66 0H11.998l146.999 694.006z" id="glyph17"/><glyph unicode="S" horiz-adv-x="524" d="m516.346 671.843-27.528-82.835c-21.165 13.008-42.992 22.489-65.48 28.662-22.33 6.173-46.173 9.323-71.339 9.323-45.826 0-82.173-8.82-109.008-26.331-26.645-17.67-40-41.48-40-71.843 0-19.81 5.355-37.637 16.19-53.637 10.645-15.843 33.637-36.19 68.818-61.008C353.826 368 396.156 330.993 414.834 303.339c18.835-27.685 28.158-58.992 28.158-94.173 0-62.489-24.977-114.835-75.15-157.008-50.173-42.142-113.827-63.15-191.024-63.15-37.827 0-71.81 3.339-102.33 9.984-30.49 6.678-58.49 16.662-84.317 30.016l25.985 85.008c24.661-14.677 50.33-25.859 76.85-33.512 26.488-7.685 53.48-11.496 80.819-11.496 48.189 0 86.992 10.646 116.189 32 29.323 21.323 44 49.008 44 83.338 0 10.993-1.512 21.67-4.347 32-2.992 10.142-7.496 20.473-13.669 30.993-12.504 20.503-37.827 44-76.346 70.677-13.638 9.48-23.811 16.819-30.646 21.984-39.181 29.67-67.339 57.67-84.347 84.347C107.495 451.18 98.991 480 98.991 511.339c0 58.488 22.677 105.48 68.19 140.66 45.48 35.34 106.645 53.009 184 53.009 30.14 0 58.991-2.835 86.487-8.347 27.339-5.48 53.512-13.827 78.678-24.819z" id="glyph18"/><glyph unicode="T" horiz-adv-x="515" d="M87.181 694.016h493.827L564.82 616H366.331L236.001 0h-98.678l130.835 616H70.993l16.189 78.016z" id="glyph19"/><glyph unicode="c" horiz-adv-x="458" d="M462.992 487.654 440 412.158c-23.181 8.346-44.661 14.677-64.661 18.677-20 4.158-38.835 6.173-56.504 6.173-57.323 0-105.165-19.842-143.34-59.338-38.33-39.496-57.48-88.662-57.48-147.654 0-48.347 13.48-87.339 40.473-116.85 27.18-29.512 63.338-44.158 108.504-44.158 15.685 0 33.008 1.984 51.842 5.827 18.835 4 39.654 9.67 61.985 17.165L370.173 7.654c-21.512-5.48-43.181-9.67-65.166-12.472-22.015-2.835-44.661-4.19-68.189-4.19-65.48 0-118.33 21.355-158.488 64.19C38.173 98.016 18.015 154.332 18.015 224c0 39.653 7.496 78.015 22.646 114.992 15.181 36.85 36.662 68.85 64.347 95.842 27.338 26.677 58.834 46.488 94.645 59.181 35.843 12.662 78.363 18.992 127.528 18.992 25.166 0 48.82-2.173 71.15-6.33 22.173-4.19 43.842-10.52 64.661-19.024z" id="glyph20"/><glyph unicode="e" horiz-adv-x="529" d="M469.827 228H110.992c-.315-4.819-.661-9.323-.819-13.512-.157-4-.157-7.81-.157-11.307 0-46.016 13.165-81.354 39.307-106.016C175.496 72.346 212.819 60 261.323 60c24 0 47.685 2.834 70.677 8.346 23.181 5.48 46.173 14.142 68.819 25.827l-7.654-78.992c-26.834-9.67-52.661-17.008-77.984-21.858-25.165-4.82-50.173-7.339-75.024-7.339-68.976 0-123.339 20.346-162.835 60.85-39.496 40.504-59.307 95.843-59.307 166.173 0 38.992 6.331 76.504 18.992 112.504C49.67 361.322 68 393.826 91.842 422.834c24.976 30.488 54.646 53.67 88.819 69.512 34.173 15.811 71.685 23.653 112.346 23.653 57.984 0 103.81-17.511 137.48-52.66 33.67-35.182 50.52-83.34 50.52-144.505a363.5 363.5 0 0 0-2.678-44c-1.826-14.992-4.661-30.488-8.504-46.835zm-76.315 66.016c1.323 6.141 2.33 12 2.835 17.48.472 5.512.661 11.181.661 16.661 0 38.331-9.827 68.504-29.512 90.678C347.843 441.008 321.008 452 287.181 452c-37.354 0-71.338-14.488-101.858-43.654-30.33-29.007-51.15-67.18-62.141-114.33h270.33z" id="glyph21"/><glyph unicode="f" horiz-adv-x="358" d="M437.008 744.157 416 670.992a397.57 397.57 0 0 1-28.504 6.677c-8.661 1.512-16.157 2.33-22.33 2.33-24.347 0-44.662-8.818-60.82-26.488-16-17.669-27.842-43.842-35.338-78.173l-16.189-73.323h127.024l-14.677-69.008H237.67L145.827 0h-95.15l93.324 433.008H37.009l14.645 69.008h106.52l20 95.307c10.646 51.685 32.315 91.181 64.662 118.173C275.34 742.487 317.009 756 368.159 756c9.165 0 19.685-1.008 31.496-2.992 11.842-1.827 24.346-4.85 37.354-8.85z" id="glyph22"/><glyph unicode="g" horiz-adv-x="586" d="M409.323 297.827c0 41.67-11.15 75.339-33.323 100.85-22.173 25.48-51.18 38.33-86.992 38.33-46.835 0-86.835-23.338-120.189-70.015-33.165-46.835-49.827-104.504-49.827-173.165 0-39.653 10.331-71.496 30.835-95.15 20.504-23.842 47.842-35.685 82.016-35.685 48.315 0 89.826 23.024 124.976 68.85 35.023 45.828 52.503 101.166 52.503 165.985zm49.858 204.189h92.82L446.015-9.008c-14.362-69.67-43.842-121.827-88.189-156.661-44.504-34.835-103.654-52.347-177.669-52.347-29.48 0-59.496 3.182-89.48 9.355-30.173 6.173-61.008 15.653-92.693 28.315l25.008 79.18c26.016-14.172 51.842-25.007 77.354-32.157 25.67-7.18 51.496-10.677 77.984-10.677 58.489 0 104 18.677 136.504 55.843 32.347 37.323 53.985 96 65.166 176-23.843-31.496-50.488-55.496-80.158-71.685C270.332 0 238.017-8 203.182-8 146.489-8 102.174 10.173 70.174 46.488c-32.158 36.19-48.158 86.331-48.158 150.173 0 47.497 7.308 92.347 22.142 134.52 14.835 42.142 35.843 77.985 62.835 107.654 22.173 24 47.023 42.489 74.677 55.182 27.653 12.66 56.819 18.992 87.496 18.992 42.992 0 78.33-8.85 106.016-26.52 27.654-17.827 48.976-44.976 64-81.67l20 97.198z" id="glyph23"/><glyph unicode="i" horiz-adv-x="250" d="M121.008 504h92L105.827 0H14.016l106.992 504zm121.165 122.016H142.016l21.984 104h100l-21.826-104z" id="glyph24"/><glyph unicode="m" horiz-adv-x="859" d="M789.165 310.016 722.015 0h-93.354l64 297.827c1.67 7.496 2.835 15.181 3.685 23.181.819 8 1.323 16.662 1.67 26.173 0 28-7.024 49.827-21.197 65.323C662.677 428.158 642.992 436 618.015 436c-37.858 0-69.354-15.338-94.677-45.827-25.323-30.677-44.661-76.346-57.67-137.354L412 0h-93.323l61.984 294.016c2.677 12.977 4.504 24.158 5.67 33.323 1.165 9.323 1.669 17.48 1.669 24.662 0 25.669-6.992 46.173-21.166 61.322-14.173 15.182-33.165 22.678-56.819 22.678-37.858 0-70.015-14.993-96.692-45.166-26.646-30.173-46.142-73.323-58.489-129.669L99.181.001H5.008L110.835 505.01h82.992l-17.985-82.173c24.662 31.181 50.835 54.173 78.489 69.008 27.685 14.834 58.33 22.173 91.842 22.173 34.173 0 62.173-9.008 84-27.024 21.67-18.173 36.662-44.66 44.819-79.81 23.496 36.818 49.354 64 77.67 81.48 28.346 17.512 60.503 26.33 96.157 26.33 46.362 0 82.016-12.976 107.339-38.992 25.165-25.984 37.858-62.677 37.858-109.827 0-12.661-.346-23.496-1.197-32.157a208.452 208.452 0 0 0-3.653-24z" id="glyph25"/><glyph unicode="n" horiz-adv-x="586" d="M503.843 257.827 450.173 0h-96l58.993 275.339c2.33 10.488 4 20.819 5.165 31.339 1.165 10.33 1.67 20.661 1.67 31.15 0 30.33-8.158 53.826-24.347 70.834-16.315 16.85-38.835 25.354-67.496 25.354-41.67 0-77.48-16.346-107.811-49.008-30.173-32.85-51.685-78.677-64.347-138.016L104.158 0H9.008l108.315 506.992h86.016l-19.181-90.173c23.842 32 50.677 56.189 80.504 72.504 30.015 16.504 61.669 24.693 95.18 24.693 47.497 0 85.481-14.677 113.67-44C501.827 440.819 516 401.512 516 352c0-12.347-1.008-26.33-2.992-41.985-1.827-15.685-5.008-33.007-9.165-52.189z" id="glyph26"/><glyph unicode="o" horiz-adv-x="586" d="M430.016 294.992c0 45.67-11.685 81.827-35.181 108.661-23.339 26.835-54.835 40.346-94.173 40.346-18.646 0-36.662-3.496-54.488-10.488-17.67-7.023-34.174-17.512-49.512-31.496-24.504-22.52-43.496-50.173-57.166-83.338-13.669-33.008-20.504-68-20.504-104.85 0-46.489 11.843-83.654 35.685-111.34 23.654-27.653 55.496-41.48 95.15-41.48 49.827 0 92.347 22.489 127.496 67.654 35.181 45.165 52.693 100.504 52.693 166.33zm-122.835 220c69.165 0 123.15-19.811 162.142-59.496C508.504 415.842 528 361.008 528 290.992c0-41.984-7.18-81.67-21.67-118.992-14.487-37.512-35.653-70.835-63.338-100.157-25.984-27.496-56.315-48.662-90.834-63.181-34.488-14.488-71.496-21.67-110.835-21.67-67.15 0-120.661 20.19-160.504 60.504-39.811 40.347-59.811 94.52-59.811 162.52 0 42.646 6.834 81.985 20.504 118.142 13.669 36 34.834 70.331 63.496 102.835 22.488 25.512 52 45.827 88.504 61.008 36.315 15.339 74.33 22.992 113.669 22.992z" id="glyph27"/><glyph unicode="p" horiz-adv-x="601" d="M127.181 97.165 62.016-209.008h-95.024l152.189 716h84.976l-16.976-88c23.811 31.843 50.488 55.843 80.157 71.843 29.48 16.157 61.48 24.157 95.654 24.157 56.504 0 101.008-18.33 133.512-55.15 32.315-36.66 48.504-87.338 48.504-151.684 0-91.811-24-167.811-72-228.315-48-60.504-108.346-90.835-180.85-90.835-39.654 0-73.48 9.166-101.323 27.339-27.843 18.141-49.008 45.165-63.654 80.819zm319.811 207.181c0 41.827-10.173 74.835-30.33 98.835-20.158 23.811-48 35.811-83.497 35.811-46.834 0-88-22.835-123.15-68.661-35.18-45.67-52.693-100.157-52.693-163.34 0-42.488 10.835-76.818 32.693-102.991C211.842 78.015 240.503 65.008 276 65.008c17.67 0 34.331 3.338 50.331 9.984 16 6.677 30.677 16.346 44 29.008 23.339 22.488 42.016 51.653 55.843 87.653 13.826 36 20.819 73.512 20.819 112.693z" id="glyph28"/><glyph unicode="r" horiz-adv-x="363" d="M393.008 507.843 372 420.662c-8.157 2.677-16.346 4.661-24.661 6.173-8.158 1.512-16.85 2.173-25.512 2.173-42.992 0-77.166-14.015-102.835-42.015-25.48-28-44.977-73.67-58.646-137.165L106.173 0H9.008l106.33 504h85.985l-17.166-80.347c24.662 32.19 49.67 55.685 74.678 70.362C283.843 508.661 311.181 516 340.819 516c7.181 0 15.181-.662 23.843-2.174 8.85-1.48 18.33-3.496 28.346-5.984z" id="glyph29"/><glyph unicode="s" horiz-adv-x="417" d="m395.836 488.833-24.834-74.663c-18.83 10.498-37.673 18.16-56.328 23.336-18.843 4.989-37.673 7.49-56.837 7.49-33.165 0-59.671-5.992-79.33-18.001-19.672-12.156-29.501-28.164-29.501-47.997 0-23.67 25.329-50.497 76.16-79.999 17.84-10.498 31.829-18.83 42.006-24.994 27.495-17.506 47.997-36.67 61.156-57.171C341.5 196.333 348 173.504 348 148.002c0-49.334-19.003-88.665-57.17-117.498C252.835 1.497 200.84-13 134.67-13c-28.004 0-55.166 2.5-81.671 7.328C26.506-.83.829 6.5-24.005 16.168L1.003 95.164c19.833-11.662 40.668-20.328 62.494-25.838 21.838-5.496 45-8.331 69.34-8.331 37.833 0 67 7.342 87.836 21.999 20.822 14.67 31.333 35.332 31.333 62.012 0 14.657-4.84 27.99-14.67 39.825-9.67 11.836-32.163 28.673-67.335 50.164l-2.995 1.832c-73.34 45-110.01 88.678-110.01 131.339 0 43.503 17.667 79.17 53.173 106.665 35.493 27.495 81.991 41.163 139.67 41.163 23.497 0 47.154-2.327 71.333-6.834 23.992-4.494 49-11.327 74.663-20.328z" id="glyph30"/><glyph unicode="t" horiz-adv-x="360" d="M270.835 658.992 237.67 504h128.346l-16.19-73.008H222.993l-54.174-251.339a261.98 261.98 0 0 1-5.165-28c-1.165-8.976-1.638-16.819-1.638-23.653 0-18.489 5.166-33.166 15.654-43.843C187.999 73.322 202.488 68 221.007 68c5.323 0 12.158.818 20.504 2.488 8.504 1.512 19.496 4 33.166 7.338l-16-74.992c-12-2.992-23.181-5.165-33.166-6.677-10.173-1.48-19.685-2.173-28.85-2.173-42.173 0-74.33 10.173-96.504 30.52-22.142 20.315-33.165 49.826-33.165 88.315 0 8.85.503 17.858 1.511 27.338 1.008 9.512 2.489 19.339 4.82 29.858l55.495 260.976H26.834L42.015 504H144l25.827 122.835 101.008 32.158z" id="glyph31"/><glyph unicode="u" horiz-adv-x="586" d="M103.161 502.006h95.178l-59.003-274.834c-2.34-10.177-3.999-20.501-5.336-31.334-1.338-10.672-2.006-21.17-2.006-31.668 0-30.33 8.17-53.84 24.34-70.838 16.328-16.837 38.996-25.329 68.002-25.329 41.324 0 77.004 16.503 107.334 49.495 30.33 33.165 51.661 79.17 64.5 138.507l52.169 246h95.659L436.168 0h-87.006l19.164 85.16c-24.82-31.988-51.995-56.154-81.657-72.496-29.675-16.502-61.17-24.66-94.83-24.66-47.168 0-84.84 14.657-112.844 43.998-27.99 29.167-41.992 68.659-41.992 117.992 0 15.005.829 30.344 2.661 45.844a480.873 480.873 0 0 0 8.171 48.33l55.325 257.838z" id="glyph32"/><glyph unicode="v" horiz-adv-x="486" d="M38.996 503.999h93.84l52.17-422.997L408.34 503.999h98.655l-287.66-509H111.829l-72.831 509z" id="glyph33"/></font><font id="FontID3" horiz-adv-x="660" font-variant="normal" style="fill-rule:nonzero" font-style="normal" font-weight="400" horiz-origin-x="0" horiz-origin-y="0" vert-origin-x="512" vert-origin-y="768" vert-adv-y="1024"><font-face font-family="Humnst777 BT" id="font-face33"><font-face-src><font-face-name name="Humnst777 BT Roman"/></font-face-src></font-face><missing-glyph id="missing-glyph33"><path d="M0 0z" id="path33"/></missing-glyph><glyph unicode="," horiz-adv-x="287" d="M110.012 105.987H211.01l-82.006-229.973H47.991l62.021 229.973z" id="glyph34"/><glyph unicode="-" horiz-adv-x="337" d="M43.998 311.999h250v-76h-250v76z" id="glyph35"/><glyph unicode="0" horiz-adv-x="574" d="M287.346 633.993c-45.354 0-79.681-24.321-103.18-72.822-23.5-48.5-35.178-119.508-35.178-212.824 0-92.834 11.849-163.67 35.688-212.342 23.811-48.67 58.337-72.991 103.492-72.991 44.334 0 78.18 24.32 101.678 72.821 23.5 48.5 35.15 118.658 35.15 210.5 0 93.996-11.65 165.485-35.008 214.325-23.159 48.84-57.486 73.332-102.642 73.332zm0 73.02c76.308 0 134.815-30.67 175.152-92.012 40.337-61.341 60.491-150.66 60.491-267.674 0-116.815-20.154-206.162-60.491-267.816-40.337-61.681-98.843-92.522-175.152-92.522-76.847 0-135.524 30.67-175.86 92.012-40.308 61.341-60.491 150.83-60.491 268.326 0 116.503 20.183 205.51 60.491 267.164 40.337 61.681 99.014 92.522 175.86 92.522z" id="glyph36"/><glyph unicode="1" horiz-adv-x="574" d="M278.833 694.006h80.173V0H268v589.828l-115.17-98.829L103 554.161l175.833 139.844z" id="glyph37"/><glyph unicode="2" horiz-adv-x="574" d="M175.003 78.996h317V0h-433v81.002c125 124.33 209.158 216.66 252.327 277 43.169 60.502 64.673 111.828 64.673 154.168 0 32.163-12.009 58.495-35.84 78.996-23.992 20.501-54.991 30.839-93.158 30.839-25.677 0-51.835-4.173-78.341-12.665-26.492-8.345-52.17-20.836-76.83-37.338L81.003 661c32.497 14.67 64.834 25.663 96.836 33.005 32.163 7.329 64.5 10.993 96.996 10.993 58.16 0 105.662-17.492 142.332-52.504 36.496-34.997 54.83-80.159 54.83-135.498 0-52.998-21.664-112-64.833-176.995-43.33-65.007-120.667-152-232.16-261.006z" id="glyph38"/><glyph unicode="3" horiz-adv-x="574" d="M339.673 363.654c47.48-8.164 84.5-26.334 110.834-54.822 26.334-28.488 39.486-64.176 39.486-106.837 0-62.503-24.49-112.818-73.672-150.83C367.17 13.01 301.831-6.01 220.165-6.01c-32.484 0-63.325 2.353-92.493 6.831C98.673 5.328 71.659 11.99 46.998 20.834l11.168 89.83c21.827-11.991 45.014-21.175 69.506-27.327 24.66-6.179 50.314-9.325 77.328-9.325 54.68 0 99.014 12.5 133.001 37.643 33.987 25.002 50.995 57.345 50.995 97.171 0 35.66-14.173 63.666-42.661 83.849-28.488 20.154-68.343 30.33-119.508 30.33h-74.154v75.997h76.167c47.48 0 85.662 10.176 114.15 30.67 28.686 20.495 43 47.65 43 81.496 0 32.655-13.832 59.159-41.668 79.823C316.486 611.655 280.344 622 235.67 622c-23.017 0-47.509-3.004-73.162-8.843-25.682-5.811-51.675-14.315-77.669-25.314l-4.847 81.978c32.003 9.666 62.334 17.008 91.162 21.855 28.856 4.819 56.692 7.313 83.678 7.313 69.165 0 124.327-16.497 165.826-49.322 41.499-32.825 62.333-76.167 62.333-129.826 0-38.353-12.67-71.518-38.154-99.354-25.511-27.836-60.49-46.658-105.165-56.834z" id="glyph39"/><glyph unicode="4" horiz-adv-x="574" d="M358.013 608.991 107.007 231.986h248.994l2.013 377.005zm-27.694 85.01h116.673V231.985H547.99V155.99H446.992V0H356v155.99H27.013v89.348l303.305 448.665z" id="glyph40"/><glyph unicode="5" horiz-adv-x="574" d="M99.002 694.006h381.994v-74.008H188.83l-3.824-191.666c16.997 3.17 32.992 5.67 48.33 7.168 15.326 1.672 30.492 2.501 45.497 2.501 71.333 0 127.66-19.003 169.172-57.17 41.323-38.168 61.998-89.668 61.998-154.837 0-71.988-24.674-128.999-74.168-170.99-49.508-42.006-116.83-63.002-201.83-63.002-24.178 0-48.678 2.327-73.673 6.834a471.315 471.315 0 0 0-74.328 20.167L85 109.165c20.835-12.17 43.998-21.33 69.327-27.67 25.342-6.325 52.169-9.494 80.507-9.494 53.667 0 96.502 14.002 128.33 41.831C395.007 141.662 411 178.506 411 224.335c0 42.327-15.165 76.161-45.67 101.503-30.33 25.49-70.998 38.154-122.165 38.154-19.832 0-42.326-1.832-67.668-5.322-25.503-3.678-52.825-9.174-82.5-16.677l6.005 352.011z" id="glyph41"/><glyph unicode="6" horiz-adv-x="574" d="M298.656 364.987c-38.154 0-69.477-14.315-93.996-42.973-24.662-28.516-36.992-65.678-36.992-111.174 0-43.342 12.5-78.66 37.672-106.327 25.001-27.666 57.146-41.499 96.32-41.499 39.005 0 71.008 13.833 96.01 41.64 24.83 27.837 37.332 63.525 37.332 107.178 0 46.828-12.331 83.99-36.822 111.656-24.69 27.666-57.855 41.499-99.524 41.499zm204.348 316.004-6.831-80.815c-18.17 9.156-37.503 15.987-57.827 20.834-20.352 4.65-41.839 7.002-64.346 7.002-69.675 0-123.505-24.01-161.007-71.858-37.672-47.99-57.004-116.645-57.996-206.333 18 29.168 41.158 51.335 69.675 66.84 28.488 15.506 60.49 23.33 96.15 23.33 61.512 0 111.854-19.985 150.69-59.811 38.975-39.855 58.478-91.19 58.478-154.005 0-69.335-21.147-126.34-63.496-171.013-42.321-44.816-96.32-67.152-162.169-67.152-77.839 0-137.479 27.977-178.978 84.16-41.527 56.154-62.333 136.827-62.333 241.822 0 124.015 26.163 219.854 78.32 287.516 52.328 67.662 126.17 101.48 221.498 101.48 23.16 0 46.488-1.814 69.846-5.641 23.499-3.685 46.998-9.184 70.327-16.356z" id="glyph42"/><glyph unicode="7" horiz-adv-x="574" d="M55.994 694.006H496v-85L229.833 0h-107l274.005 617.003H55.993v77.003z" id="glyph43"/><glyph unicode="8" horiz-adv-x="574" d="M293.838 391.009c38.494 20.664 67.663 43.313 87.817 68.144 20.182 24.86 30.359 50.173 30.359 76.337 0 29.168-11.027 53.178-33.024 72-21.996 19.02-50.002 28.516-84.16 28.516-38.324 0-69.817-10.006-94.166-30.16-24.491-20.013-36.652-45.666-36.652-76.677 0-28.346 9.978-53.348 29.99-75.004 19.985-21.487 53.32-42.492 99.836-63.156zm-17.008-62.022c-44.673-16.809-78.15-37.162-100.317-60.83-22.337-23.5-33.505-50.656-33.505-81.156 0-35.178 13.493-64.658 40.507-88.327 27.155-23.84 60.973-35.66 101.82-35.66 40.677 0 74.494 11.48 101.338 34.328 26.815 22.988 40.336 51.505 40.336 85.662 0 30.983-12.188 58.337-36.51 82.006-24.32 23.81-62.163 45.155-113.669 63.977zm89.348 34.186c53.66-18.85 93.826-43.342 120.16-73.672 26.504-30.16 39.656-66.33 39.656-108.51 0-57.146-22.337-103.662-66.84-139.322-44.646-35.83-102.812-53.66-174.811-53.66-70.016 0-126.85 18.17-170.673 54.312C69.846 78.49 47.99 124.837 47.99 180.99c0 43.852 13.351 80.843 40.167 111.004 26.844 30.16 66.84 53.007 119.848 68.173-43.682 18.992-77.159 43.511-100.346 73.672C84.501 464 72.992 497.987 72.992 535.83c0 50.825 20.353 91.842 60.832 123.165 40.506 31.35 94.166 46.998 161.007 46.998 62.843 0 113.669-14.995 152.333-45.156 38.494-30.16 57.826-69.675 57.826-118.176 0-37.162-11.99-71.319-36-102.5-23.81-31.152-58.166-56.834-102.812-76.988z" id="glyph44"/><glyph unicode="9" horiz-adv-x="574" d="M418.838 485.838c0 43.33-12.17 78.501-36.67 105.662-24.339 27-55.672 40.494-94 40.494-39.331 0-72.002-14.657-97.665-44.158C164.839 558.334 152 520.662 152 475.166c0-42.661 12.33-77.498 37.004-104.66 24.834-27 56.502-40.507 95.164-40.507 40.668 0 73.326 14.162 97.826 42.34 24.5 28.164 36.843 65.997 36.843 113.499zM83.998 14.002l6.834 81.336c18.174-9.508 37.498-16.502 57.84-21.343C168.998 69.327 190.328 67 212.835 67c69.327 0 122.834 23.671 160.332 71.173 37.66 47.488 57.17 116 58.83 205.494-18.162-28.833-41.659-51.006-69.997-66.505-28.498-15.5-60.5-23.163-96.006-23.163-61.156 0-111.333 20.007-150.33 60.006-39.17 40-58.668 91.326-58.668 153.833 0 69.327 21.33 126.498 64.005 171.5 42.66 45.16 96.662 67.668 162.164 67.668 77.498 0 136.996-28.178 178.506-84.506 41.497-56.328 62.332-137.504 62.332-243.66 0-123.169-26.171-218.333-78.675-285.668C393 25.664 318.831-7.997 223.172-7.997c-23.175 0-46.338 1.832-69.34 5.336a465.897 465.897 0 0 0-69.835 16.663z" id="glyph45"/><glyph unicode=":" horiz-adv-x="287" d="M91.995 107h103V0h-103v107zm0 399.005h103V398.002h-103v108.003z" id="glyph46"/><glyph unicode="B" horiz-adv-x="575" d="M181.997 322.002V78.996h73.673c56.503 0 99.163 10.498 127.996 31.334 28.833 20.835 43.33 51.5 43.33 91.834 0 39.505-13.333 69.34-40.16 89.507-26.666 20.167-66.331 30.33-118.995 30.33h-85.843zm0 296.004V396.999h70.838c50.003 0 88.505 9.83 115.171 29.341 26.667 19.498 40 47.328 40 83.329 0 35.158-12.504 61.998-37.673 80.494-24.994 18.508-61.17 27.843-108.337 27.843h-79.999zm-95.993 76h185.835c75.331 0 133.492-15.339 174.494-45.843 41.163-30.665 61.664-73.66 61.664-129 0-38.327-10.993-70.824-32.832-97.33-21.838-26.666-53.667-45.335-95.498-56.502 48.33-11.662 85.16-32.163 110.33-61.33 25.342-29.167 38.007-65.836 38.007-110.169 0-61.504-22.173-109.166-66.506-143C417.166 16.998 354.338 0 272.828 0H86.003v694.006z" id="glyph47"/><glyph unicode="H" horiz-adv-x="681" d="M86.004 694.006H183V399.995h314.994v294.011h97.01V0h-97.01v320.999H183V0H86.003v694.006z" id="glyph48"/><glyph unicode="K" horiz-adv-x="589" d="M86.003 694.002h97V389.336l287.319 304.666h116.843l-312.32-323.828L612.99 0H487.84L183.005 338.993V0H86.003v694.002z" id="glyph49"/><glyph unicode="O" horiz-adv-x="732" d="M366.334 630.002c-64.834 0-116.668-25.663-155.839-76.83C171.499 501.832 152 433.495 152 348.334c0-85.669 19.499-154.007 58.495-204.999 39.17-50.831 91.005-76.334 155.839-76.334 64.66 0 116.668 25.503 155.839 76.334 39.157 50.993 58.829 119.33 58.829 205 0 85.16-19.672 153.497-59.003 204.837-39.505 51.167-91.326 76.83-155.665 76.83zm0 77.003c96.836 0 173.505-32.176 229.994-96.34 56.502-64.326 84.666-152.162 84.666-263.334 0-111.667-28.164-199.663-84.492-264.002-56.168-64.165-132.997-96.328-230.167-96.328-96.997 0-173.84 32.163-230.502 96.328-56.502 64.339-84.827 152.335-84.827 264.002 0 111.172 28.325 199.008 84.827 263.333 56.662 64.165 133.505 96.341 230.502 96.341z" id="glyph50"/><glyph unicode="R" horiz-adv-x="570" d="M182.011 618.998V382.987h74.664c48.5 0 86.485 10.687 113.98 32.003 27.524 21.175 41.357 50.513 41.357 88.015 0 39.997-12.84 69.335-38.352 87.987-25.484 18.68-65.48 28.006-119.82 28.006h-71.83zm-96.009 75.004h186.83c79.001 0 138.5-14.825 178.326-44.673 39.827-29.82 59.84-74.154 59.84-133.171 0-43.994-13.012-80.504-39.005-109.643-25.994-29.169-63.496-48.841-112.166-59.358 20.664-5.499 37.672-14.995 50.683-28.317 12.982-13.352 26.475-36.68 40.478-69.846L556.011 0H452.01l-91.331 226.997c-12.02 29.169-27.185 49.833-45.354 61.994-18.17 12.018-44.164 18-77.67 18h-55.643V0h-96.01v694.002z" id="glyph51"/><glyph unicode="T" horiz-adv-x="503" d="M9 694.006h485.998v-81.002H301.005V0h-98v613.004H9v81.002z" id="glyph52"/><glyph unicode="a" horiz-adv-x="527" d="M303.844 248.002c-55.19 0-97.511-8.844-126.85-26.334-29.338-17.66-43.993-42.83-43.993-75.656 0-25.171 8.333-45.666 25.001-61.851C174.67 68.003 196.326 60.01 223 60.01c42.01 0 75.656 13.662 100.998 40.988s38.012 64.006 38.012 109.842v37.162h-58.166zm151.142 57.174V0h-85.974v83.99c-19.332-30.67-43.172-53.489-71.518-68.484C269.006.51 236.153-7.001 198.679-7.001c-47.338 0-85.69 13.663-114.86 40.989C54.68 61.342 39.998 97 39.998 140.995c0 54.68 22.166 96.519 66.33 125.517 44.163 28.998 107.999 43.483 191.167 43.483h64.516v9.836c0 39.004-10.857 69.505-32.513 91.332-21.827 21.826-51.817 32.825-90 32.825-21.656 0-43.993-3.487-67.152-10.488-23.017-7.002-46.856-17.49-71.347-31.493l-.993 75.996c25.172 11.99 51.506 21.005 79.172 26.986 27.666 6.01 57.316 9.014 88.837 9.014 62.163 0 108.82-17.348 140.144-52.157 31.18-34.838 46.828-87.023 46.828-156.67z" id="glyph53"/><glyph unicode="b" horiz-adv-x="596" d="M318.832 442c-44.172 0-79.17-16.837-104.994-50.337-25.837-33.5-38.836-79.33-38.836-137.664 0-56.663 12.999-101.998 38.836-135.993C239.662 83.998 273.67 67 315.836 67c41.002 0 73.66 16.503 97.826 49.495 24.165 33.166 36.335 78.006 36.335 134.508 0 58.668-11.836 105.167-35.667 139.497-23.67 34.329-55.499 51.5-95.498 51.5zM82.005 747.004h92.998V421.993c18.495 30.504 41.658 53.346 69.327 68.337 27.67 15.166 60.166 22.668 97.665 22.668 61.838 0 111.667-23.162 149.339-69.5 37.833-46.5 56.662-108.004 56.662-184.833 0-79.17-19.163-143.335-57.665-192.669-38.328-49.334-87.836-73.994-148.336-73.994-38.167 0-71.988 9.334-101.664 27.83-29.502 18.669-54.001 46.164-73.165 82.339V-.001H82.005v747.004z" id="glyph54"/><glyph unicode="c" horiz-adv-x="464" d="m431.997 485.005-7.342-79.993c-15.165 8.334-32.144 14.825-50.484 19.332-18.34 4.479-37.502 6.661-57.345 6.661-51.817 0-93.656-16.497-125.659-49.492-32.173-33.024-48.16-76.167-48.16-129.514 0-54.652 15.505-98.504 46.658-131.498 31.01-32.995 72.51-49.493 124.157-49.493 19.02 0 37.842 2.325 57.004 7.002 19.02 4.649 38.494 11.65 58.337 21.004l4.847-82.005C413.176 9.157 391.49 3.346 369.154-.34c-22.479-3.827-45.666-5.67-69.307-5.67-76.847 0-138.5 23.33-185.016 70.186-46.488 46.658-69.817 108.65-69.817 185.838 0 76.818 23.981 138.642 72 185.64 47.99 46.856 111.316 70.355 190.147 70.355 23.017 0 45.014-1.672 65.848-5.187 20.835-3.317 40.479-8.646 58.989-15.817z" id="glyph55"/><glyph unicode="d" horiz-adv-x="596" d="M276.83 442.004c-39.997 0-72-17.008-96.009-50.995-23.81-34.016-35.83-80.022-35.83-138.018 0-57.316 12.19-102.67 36.34-135.977 24.35-33.335 56.835-50.003 97.512-50.003 42.32 0 76.478 16.98 102.33 50.825 25.823 33.817 38.834 78.831 38.834 135.155 0 59.017-12.84 105.165-38.353 138.67-25.483 33.505-60.49 50.343-104.825 50.343zM420.007 747.01h93.004V.001h-84.67v102.16c-19.502-36.482-43.994-64.006-73.502-82.488-29.509-18.51-63.666-27.666-102.84-27.666-59.499 0-108.51 24.832-147.174 74.664-38.494 49.833-57.827 113.84-57.827 191.99 0 77.186 18.992 139.01 56.835 185.497 38.012 46.517 87.987 69.846 150.179 69.846 36.141 0 68.144-7.682 96.15-23.16 28.006-15.335 51.335-38.352 69.846-68.852V747.01z" id="glyph56"/><glyph unicode="e" horiz-adv-x="514" d="M489.994 266.994V229.01H134.503c3.657-53.688 20.835-95.499 51.505-125.347 30.813-29.82 72.482-44.674 124.837-44.674 23.16 0 45.978 3.005 68.825 9.014 22.819 6.01 46.176 15.336 70.327 28.007V16.158C427.83 6.832 403.68-.169 377.487-4.988c-26.163-4.677-54.991-7.002-86.484-7.002-76.167 0-136.176 23.981-180.17 72-43.822 47.99-65.82 113.328-65.82 195.816 0 77.498 21.487 139.832 64.659 187.17 43 47.338 99.495 71.007 169 71.007 65.82 0 117.326-21.997 154.998-65.848 37.502-43.994 56.324-104.314 56.324-181.161zm-86.995 24.01c-3.345 50.172-16.157 88.837-38.664 115.652-22.507 26.844-52.667 40.337-90.51 40.337-37.332 0-68.314-14.003-92.834-41.839-24.491-27.808-39.146-65.82-43.993-114.15h266z" id="glyph57"/><glyph unicode="f" horiz-adv-x="352" d="m349.991 748.172-3.005-75.344c-10.318 3.515-19.474 6.18-27.326 7.681-7.823 1.645-14.825 2.495-21.004 2.495-26.646 0-46.318-8.674-58.819-25.824-12.5-17.347-18.85-44.333-18.85-81.013v-74.154H337.83v-71.008H220.987V0h-92.976v431.005H22.988v71.008h105.023v79c0 57.317 13.493 100.829 40.649 130.479 27.184 29.679 67.18 44.504 120.018 44.504 9.496 0 19.502-.652 29.65-1.985 10.346-1.332 20.835-3.174 31.663-5.839z" id="glyph58"/><glyph unicode="g" horiz-adv-x="591" d="M277.822 441.011c-39.656 0-71.49-16.497-95.159-49.35-23.839-32.996-35.66-77.5-35.66-133.824 0-56.182 11.991-100.516 36.17-133.51 23.982-32.826 55.985-49.323 95.67-49.323 41.158 0 74.323 16.497 99.835 49.662 25.483 32.995 38.324 76.337 38.324 130.166 0 58.337-12.33 103.832-36.992 136.827-24.83 32.854-58.846 49.351-102.188 49.351zm148.676-28.857v89.858h88.497V57.004c0-92.012-20.834-161.007-62.674-207.013-41.81-45.977-104.314-68.995-187.312-68.995-29.678 0-58.846 2.665-87.505 7.994-28.516 5.33-55.502 13.011-80.503 23.017l6.832 83.99c26.163-13.663 51.505-23.839 75.996-30.67 24.661-6.832 47.848-10.318 69.335-10.318 54.992 0 97.681 16.157 127.672 48.5 30.16 32.315 45.156 78.15 45.156 137.338v59.98c-19.985-33.334-43.994-58.506-72-75.485C322.014 8.504 290.493 0 255.826 0 194.343 0 144.51 23.16 106.328 69.505c-38.154 46.488-57.316 107.49-57.316 183.315 0 79.682 18.992 143.177 56.834 190.345 37.814 47.168 88.157 70.837 151 70.837 38.155 0 71.32-8.503 99.666-25.511C384.83 471.34 408.16 446 426.5 412.154z" id="glyph59"/><glyph unicode="h" horiz-adv-x="586" d="M82.998 747.009h93.004V420.828c17.49 30.84 40.337 54.17 68.343 69.675 27.978 15.676 60.831 23.5 98.475 23.5 56.522 0 99.354-17.83 128.522-53.66 29.168-35.83 43.653-88.185 43.653-157.18V0h-93.004v282.159c0 51.505-9.156 89.687-27.326 114.519-18.17 24.831-46.318 37.332-84.5 37.332-41.669 0-74.324-15.676-98.333-47.168-23.84-31.351-35.83-75.005-35.83-131.016V0H82.998v747.01z" id="glyph60"/><glyph unicode="i" horiz-adv-x="250" d="M78.009 502.013h93.004V0H78.01v502.013zm0 229.973h93.004V639.01H78.01v92.976z" id="glyph61"/><glyph unicode="k" horiz-adv-x="502" d="M82.995 747.004h93.01V303.332l197.992 198.673h108.67L259.83 288.166 511.006-.001H394.003L176.005 263.172V-.001H82.994v747.004z" id="glyph62"/><glyph unicode="m" horiz-adv-x="883" d="M481.839 403.672c18.495 35.827 42.166 62.988 70.999 81.497 28.833 18.495 61.824 27.83 98.989 27.83 52.343 0 92.342-17.827 119.838-53.667 27.495-35.827 41.337-87.836 41.337-156.16V-.001h-92.998v282.163c0 50.338-7.998 87.836-23.831 112.176-16.008 24.5-40.508 36.656-73.34 36.656-40.333 0-71.827-15.5-94.669-46.325-22.828-31-34.169-73.834-34.169-128.838V0h-92.997v282.163c0 52.343-7.998 90.336-23.832 113.673-15.834 23.496-41.497 35.158-76.83 35.158-37.163 0-67.173-15.82-90.001-47.328-22.828-31.494-34.33-74.168-34.33-127.835V0h-93.01v502.006h86.003v-93.011c17.84 33.834 41.003 59.671 69.167 77.337 28.164 17.84 60.34 26.667 96.34 26.667 34.999 0 64.995-9.335 90.163-28.004 25.169-18.83 44.159-45.83 57.171-81.323z" id="glyph63"/><glyph unicode="n" horiz-adv-x="586" d="M515.005 303.172V0h-93.011v282.163c0 51.5-9.16 89.668-27.322 114.502-18.174 24.834-46.338 37.338-84.505 37.338-41.671 0-74.33-15.673-98.334-47.167-23.831-31.334-35.827-74.998-35.827-131.005V0H82.995v502.006h85.174v-92.838c18.495 34.664 42.5 60.996 71.668 78.501 29.327 17.493 63.67 26.332 103 26.332 56.503 0 99.324-17.84 128.49-53.667 29.168-35.84 43.678-88.17 43.678-157.163z" id="glyph64"/><glyph unicode="o" horiz-adv-x="586" d="M294.008 442.996c-44.674 0-80.844-17.49-108.51-52.497-27.666-35.008-41.499-81.156-41.499-138.5 0-56.665 13.833-102.5 41.499-137.508 27.666-34.98 63.836-52.498 108.51-52.498 45.326 0 81.666 17.348 108.991 51.846 27.326 34.497 40.989 80.503 40.989 138.16 0 57.996-13.663 104.343-40.989 139.01-27.326 34.667-63.666 51.987-108.991 51.987zm-1.02 71.007c77.186 0 138.018-23.499 182.352-70.497 44.503-46.998 66.67-111.174 66.67-192.5 0-80.673-22.337-144.679-67.18-192.018-44.674-47.31-105.336-70.979-181.842-70.979-76.478 0-136.998 23.67-181.33 70.837-44.476 47.14-66.643 111.146-66.643 192.16 0 81.325 22.167 145.5 66.642 192.5 44.334 46.997 104.853 70.497 181.331 70.497z" id="glyph65"/><glyph unicode="r" horiz-adv-x="360" d="m351.012 507.653-3.005-88.497c-7.341 2.353-14.173 3.855-20.352 4.677-6.151.822-12.33 1.162-18.652 1.162-42.491 0-75.345-14.995-98.333-44.985-23.16-29.849-34.668-72.51-34.668-128.012V0H82.998v502.013h84.16v-102.84c14.003 36.34 33.505 64.006 58.337 83.168 24.831 19.162 53.66 28.658 86.512 28.658 5.16 0 11.169-.34 17.83-.992 6.662-.51 13.663-1.333 21.175-2.353z" id="glyph66"/><glyph unicode="s" horiz-adv-x="420" d="m362.01 489.002-3.997-75.996c-20.182 9.496-40.847 16.667-62.192 21.656-21.316 4.847-43 7.342-64.827 7.342-25.314 0-45.666-5.16-61.002-15.676-15.335-10.318-22.988-24.32-22.988-41.499 0-15.335 6.32-28.998 18.821-41.158 12.501-11.99 38.495-27.326 78.18-46.006 52.837-24.322 89.148-48.16 109.161-71.178 19.843-23.159 29.82-50.995 29.82-83.48 0-45.666-18.31-81.835-54.991-108.68C291.513 7.512 241.822-6.01 179.347-6.01c-22.847 0-45.354 2.183-67.69 6.35-22.31 4.337-43.824 10.488-64.659 18.652l2.835 78.009c22.677-11.339 45.496-19.842 68.002-25.512 22.677-5.669 44.334-8.475 65.169-8.475 30.5 0 54.821 6.661 72.991 19.814 18 13.18 27.014 30.84 27.014 53.347 0 16.668-5.329 30.813-16.185 43.002-10.659 11.99-35.66 27.666-75.005 46.828-52.809 25.653-88.979 49.663-108.48 71.83-19.503 22.166-29.34 48.16-29.34 78.178 0 39.487 16.668 71.32 49.834 95.499 33.335 24.321 77.668 36.482 133 36.482 20.155 0 40.848-1.503 61.824-4.65 21.004-3.004 42.18-7.851 63.354-14.342z" id="glyph67"/><glyph unicode="t" horiz-adv-x="366" d="M216.005 657.002V502.006h120.159v-71.012H216.005V170.83c0-38.997 5.657-66.826 17.158-83.169 11.34-16.489 30.01-24.66 56.007-24.66 6.5 0 14.002.83 22.494 2.661 8.505 1.833 18 4.668 28.338 8.506l1.003-73.34c-12.343-3.33-24.834-5.656-37.338-7.328-12.665-1.67-25.33-2.5-38.502-2.5C214.333-9 177.998 4.172 156 30.33c-22 26.332-33.006 70.17-33.006 131.673v268.99H21.999v71.012h104.004v123.823l90.002 31.174z" id="glyph68"/><glyph unicode="u" horiz-adv-x="586" d="M72.002 502.006H165V224.002c0-51.835 9-90.002 27.16-114.341 18.001-24.5 45.844-36.656 83.677-36.656 43.49 0 76.83 16.823 99.832 50.323 22.828 33.5 34.329 82.34 34.329 146.504v232.173h92.998V0h-85.161v96.996c-18.495-35.158-42.166-61.33-70.665-78.327-28.672-17.172-63.001-25.664-103-25.664-56.503 0-99.337 17.666-128.505 53.16C86.498 81.67 72.002 134 72.002 203.005v299z" id="glyph69"/></font><font id="FontID1" horiz-adv-x="705" font-variant="normal" style="fill-rule:nonzero" font-style="normal" font-weight="400" horiz-origin-x="0" horiz-origin-y="0" vert-origin-x="512" vert-origin-y="768" vert-adv-y="1024"><font-face font-family="Humnst777 Blk BT" id="font-face69"><font-face-src><font-face-name name="Humnst777 Blk BT Black"/></font-face-src></font-face><missing-glyph id="missing-glyph69"><path d="M0 0z" id="path69"/></missing-glyph><glyph unicode="G" horiz-adv-x="758" d="M679.998 678.323 663.841 533.99c-28.166 16.003-57.852 28.011-88.672 36-31 8.014-62.67 12.008-95.166 12.008-75.839 0-135.675-21.002-179.328-63.006-43.833-42.003-65.686-99.314-65.686-171.984 0-70.015 19.508-125.676 58.522-167.01 39.144-41.333 91.661-62 157.811-62 13.838 0 26.852.67 38.5 2.01 11.673 1.314 22.857 3.17 33.19 5.824V270.99h-107.02V402h279.003V15.18C658.506 4.845 620.677-2.99 581.172-8.168c-39.35-5.154-79.678-7.834-121.012-7.834-135.16 0-237.824 30.51-307.994 91.326-70.17 60.841-105.164 149.668-105.164 266.505 0 116.992 35.484 207.829 106.66 272.844 70.993 64.835 170.85 97.33 299.334 97.33 38.5 0 76.664-2.834 114.493-8.504a851.937 851.937 0 0 0 112.508-25.176z" id="glyph70"/><glyph unicode="U" horiz-adv-x="722" d="M64.99 693.991h184.997V290.007c0-59.166 8.839-101.995 26.336-128.511 17.678-26.336 45.844-39.504 84.497-39.504 39.685 0 69.68 14.173 89.858 42.519 20.151 28.32 30.33 70.144 30.33 125.496v403.984h176.004V290.007c0-102.175-24.687-178.684-74.01-229.681-49.167-50.817-123.33-76.328-222.181-76.328-97.975 0-171.83 25.666-221.332 76.843-49.658 51.333-74.5 127.661-74.5 229.166v403.984z" id="glyph71"/><glyph unicode="g" horiz-adv-x="670" d="M327.991 395.995c-31.49 0-57.002-11.828-76.148-35.665-19.172-23.836-28.836-55.171-28.836-94.34 0-38.99 9.664-70.325 28.836-93.826 19.146-23.502 44.658-35.175 76.148-35.175 31.67 0 57.182 11.853 76.844 35.51 19.507 23.501 29.325 54.656 29.325 93.49 0 38.835-9.818 70.17-29.325 94.187-19.662 23.836-45.174 35.819-76.844 35.819zm121.347 35.175v82.822h162.655V68.83c0-95.165-25.331-166.495-76.148-214.323-50.843-47.673-126.681-71.51-227.671-71.51-38.164 0-74.344 2.835-108.669 8.324-34.505 5.515-67 14.019-97.51 25.512l9.663 131.165c28.01-13.839 56.666-24.327 85.837-31.336 29.17-7.164 57.671-10.668 85.683-10.668 50.481 0 88.98 11.673 115.833 34.84 26.645 23.32 39.993 56.666 39.993 100.165v47.827c-22.831-28.655-48.343-49.992-76.663-63.83-28.346-13.993-60.352-21.002-96.17-21.002-67.825 0-122.508 23.837-164.33 71.51-41.85 47.673-62.852 110.653-62.852 188.837 0 78.647 21.517 142.323 64.68 190.82 43.164 48.498 99.341 72.85 168.325 72.85 36.515 0 69.164-8.014 98.335-24.017 29.17-16.002 55.507-40.328 79.009-72.823z" id="glyph72"/></font><font id="FontID0" horiz-adv-x="780" font-variant="normal" style="fill-rule:nonzero" font-style="normal" font-weight="400" horiz-origin-x="0" horiz-origin-y="0" vert-origin-x="512" vert-origin-y="768" vert-adv-y="1024"><font-face font-family="Broadway" id="font-face72"><font-face-src><font-face-name name="Broadway"/></font-face-src></font-face><missing-glyph id="missing-glyph72"><path d="M0 0z" id="path72"/></missing-glyph><glyph unicode="," horiz-adv-x="376" d="M311.994 47.505c-15.99-20.836-35.667-36.5-59.158-46.841-23.505-10.495-51.008-15.666-82.339-15.666-33.83 0-63.17 7.67-88.003 22.997C52.167 26.5 36.995 52.999 36.995 87.494c0 27.333 9.832 50.839 29.34 70.671 30.667 31.16 70.995 46.842 121.17 46.842 46.332 0 83.497-13.011 111.494-39.002C326.332 140.493 340.006 106.34 340.006 63c0-27.672-5.834-53.339-17.671-76.829-11.668-23.675-28.167-42.504-49.342-56.503-30.991-21.175-73.665-31.67-127.822-31.67-24.17 0-36.177 4.83-36.177 14.662 0 8.18 6.004 12.347 18.181 12.347l15.666-1.003h9.83c34.326 0 62.832 5 85.828 15.156 29.34 12.671 50.5 34.51 63.17 65.347 3.334 7.5 6.668 21.823 10.326 42.998z" id="glyph73"/><glyph unicode="F" horiz-adv-x="652" d="m352.998 452.994-1.002-118.329 4.009-312.16V0h-299l2.992 363.005L57.005 667H574.33c23.33 0 36.506-.5 39.498-1.503 7.501-1.827 11.17-7.324 11.17-16.491 0-11.334-7.162-17.008-21.502-17.008h-3.33l-244.16 3.007-3.007-151.003 53.336-.501 171.164 2.992 37.67.5c13.838 0 22.829-1.164 27.161-3.33 4.51-2.329 6.677-6.824 6.677-13.662 0-12.675-10.833-18.997-32.335-18.997L578 452.006l-225 .988z" id="glyph74"/><glyph unicode="H" horiz-adv-x="758" d="m676.993 437.004-1.489 137.326-1.503 61.176c0 15.829 1.327 26.661 3.994 32.158 2.668 5.497 8.165 8.342 16.506 8.342 12.66 0 18.997-10.007 18.997-29.844l-.5-33.16-1.165-108.337-1.827-174.333 1.827-181.672 1.164-127.319c0-11.834-1.326-19.837-3.832-24.008-2.505-4.17-7.501-6.337-14.826-6.337-7.84 0-13.175 2.343-16.005 6.838-2.83 4.495-4.333 12.837-4.333 24.833l.825 41.502 2.167 245v90.829l-18.658.663-95.339 2.343-209.998-3.006.502-134.836L356.005 0h-299l2.993 423.666-1.165 111.83-.663 103.164L57.006 667h298.999l-.501-25.496-2.506-204.501c33.337-2.004 86.334-3.007 159.005-3.007 66.836 0 121.822 1.003 164.99 3.007z" id="glyph75"/><glyph unicode="M" horiz-adv-x="948" d="m732.502 688.994 106.663-363.496 48.508-161.005 43.493-145.988L937 0H640.008L546 344.837 345.5 41.996 138.997 328.833C118.994 258.84 97.17 172.998 73.496 71.336 65.007 32.335 59.003 9.338 55.16 2.007 51.503-5.339 43.832-8.997 32.504-8.997c-14.338 0-21.5 4.83-21.5 14.492 0 2.84 4.492 19.17 13.66 49.172L54.835 158.66l52.66 179.51L210.5 688.995l267.992-385.829 254.01 385.83z" id="glyph76"/><glyph unicode="P" horiz-adv-x="761" d="M354.001 119.331v-13.662l2.004-93.496V-.001H57.006l.501 29.83 2.491 343.507-2.004 163.162-.487 111.005-.5 19.498h222.996c91.168 0 160.17-3.832 207.168-11.673 47.161-7.825 86.496-21.826 118.491-42.164 42.843-27 76.003-64.67 99.51-112.832 17.832-36.992 26.822-75.502 26.822-116.001 0-43.668-10.154-85.332-30.33-125.168-23.993-47.662-58.17-84.167-102.324-109.826-44.007-25.511-95-38.333-153.007-38.333-21.502 0-52.334 2.83-92.332 8.327zm1.002 514.671v-32.836l-2.004-327L354 152.327c25.673-6.823 58.833-10.33 99.671-10.33 36.668 0 71.493 7.339 104.166 22.003 32.836 14.664 60.499 35.503 83.328 62.163 38.495 45.334 57.83 98.168 57.83 158.165 0 57.168-19.159 108.838-57.491 155.174-27.177 32.998-62.341 56.991-105.507 71.994-43.167 15.003-98.67 22.505-166.492 22.505h-14.502z" id="glyph77"/><glyph unicode="S" horiz-adv-x="597" d="M51.002 113.005c5.824 0 12.663-4.338 20.501-13.177 24.325-26.501 54.003-47.826 89.166-63.826C195.994 20 230.672 12 264.997 12c38.002 0 57.002 11.501 57.002 34.664 0 14.662-6.662 31.163-19.839 49.664-13.324 18.339-44.987 54.679-95.49 109.005C143.33 273.998 101.006 325 79.828 358.163 52.002 402.165 38 444.005 38 483.83c0 59.84 26.663 108.843 80.004 147.006C170.33 668.337 234.672 687 311.499 687c53.502 0 102.828-10.839 147.668-32.501 16.839-8.5 31.34-18.163 43.502-29.164 12.162-11 18.324-20.339 18.324-27.839 0-3.5-1.662-6.824-5.162-9.824-3.338-3.177-6.838-4.677-10.339-4.677-5.485 0-13.662 5-24.324 15.001-17.501 16.34-40.502 30.001-69.003 40.84C383.502 649.66 356.162 655 329.999 655c-16.339 0-29.5-3.5-39.663-10.5-10.177-7.001-15.339-16.002-15.339-27.164 0-13.339 6.339-29.501 18.84-48.84 12.661-19.163 34-44.664 64.164-76.665 95.504-101.828 153.992-170.493 175.493-205.994 22.339-37.502 33.501-73.665 33.501-108.505 0-29.664-8-57.665-23.824-84.004-16.001-26.325-38.002-47.988-66.342-64.988C423.004-3.838 357.162-20 279.497-20 208.171-20 145.168-1.5 91.003 35.502c-38.001 26-57.002 46.325-57.002 61.002 0 4.162 1.662 8 5.162 11.324 3.338 3.5 7.338 5.177 11.839 5.177z" id="glyph78"/><glyph unicode="T" horiz-adv-x="690" d="m496.007 633.999-1.838-152.83-1.162-145.168 1-336H196.994l3 389.326-1.5 132.344-1.5 112.328-64.488-1.5-92.343-2-13.662-.338c-15.662 0-23.5 5.838-23.5 17.677 0 10.5 4.5 16.324 13.661 17.662 2.677.662 10.501 1.162 23.84 1.5H639.16c20.839-.338 33.178-1.338 37.178-3 6.5-2.5 9.662-8.162 9.662-16.662 0-11.177-8.339-16.84-25.001-16.84l-42.502 1.5L505.831 634h-9.824z" id="glyph79"/><glyph unicode="a" horiz-adv-x="704" d="M403.004 323.995v59.673c-.339 41.502-1.002 66.998-2.004 76.504-1.002 9.329-3.832 17.832-8.828 25.334-11.673 18.334-39.011 27.5-82.178 27.5-66.497 0-117.828-20.677-153.995-61.84-14.664-16.83-27-25.171-37.168-25.171-7.502 0-14.001 2.667-19.498 7.84-5.498 5.158-8.327 11.171-8.327 17.995 0 20.338 24.332 41.34 72.834 63.004 46.158 20.84 105.994 31.17 179.329 31.17 120.496 0 205.503-18.171 254.992-54.677 21.502-15.99 35.503-33.823 42.002-53.66 6.5-19.837 9.83-54.839 9.83-104.83v-193.83c-1.326-35.681-.324-62.68 3.169-80.675C656.492 40.337 664.17 20.839 676.005 0H402.001v51.007c-29.829-20.5-59.673-36.004-89-46.336-29.506-10.508-58.495-15.666-87.174-15.666-48.326 0-91.492 14.163-129.162 42.49-49.166 37.006-73.66 85.169-73.66 144.503 0 52.334 19.823 94.675 59.659 126.833C128.999 341.002 186.329 360 254.83 360c28.001 0 52.835-2.506 74.337-7.664 21.502-5.173 46.159-14.664 73.836-28.34zm0-34.987c-41 20.662-72.672 30.993-95 30.993-18.996 0-31.332-7.501-37.168-22.504-3.169-8.003-4.834-31.657-4.834-70.668V110.327c.339-25.82 1.164-41.325 2.505-46.822 3.154-15.003 14.163-22.504 32.821-22.504 14.841 0 31.333 4.495 49.667 13.5 18.171 9.004 34.84 20.839 50.005 35.503l2.004 199.004z" id="glyph80"/><glyph unicode="c" horiz-adv-x="563" d="M285.998 427.004V100.666l-1-31.34c0-20.162 2.5-33.663 7.5-40.325 5.162-6.662 15.34-10 30.502-10 38.501 0 76.165 11.838 113.329 35.34 37.001 23.486 67.34 54.987 90.665 94.665 7.339 12 14.34 17.986 21.178 17.986 5 0 9.5-2.161 13.662-6.485 4.162-4.5 6.162-9 6.162-14 0-11.678-9.5-28.002-28.325-49.341-18.839-21.163-40.84-40.164-65.84-57.164C422.665 6 368.001-11.001 309.66-11.001c-79.827 0-145.653 24.663-197.832 74.165-59.164 55.665-88.827 123.83-88.827 204.671 0 83.166 31.34 152.492 93.828 207.833 52.502 46.826 117.167 70.327 194.009 70.327 61.164 0 114.829-14.324 160.669-43.164 19.662-12.324 35.487-25.5 47.987-39.663 12.339-14 18.5-26.001 18.5-35.664 0-4.838-1.823-9-5.323-12.338-3.5-3.5-7.839-5.162-13-5.162-6.84 0-15.34 7.823-25.663 23.324-15.001 21.678-38.679 40.502-71.004 56.68-32.34 15.985-62.84 23.986-91.504 23.986-19.162 0-31.663-5.324-37.163-16.163-5.5-10.662-8.339-34.325-8.339-70.827z" id="glyph81"/><glyph unicode="d" horiz-adv-x="746" d="m689.004 667.001-.678-239.002-.324-168.998 1.002-236.998V0H439.995v64.006c-26.66-27-52.496-46.174-77.491-57.67-24.833-11.51-53.174-17.33-84.83-17.33-61.84 0-117.003 22.828-165.181 68.323-59.659 56.343-89.488 127.835-89.488 214.331 0 84.005 28.827 152.167 86.496 204.501 50.992 46.513 108.499 69.843 172.328 69.843 28.34 0 55.664-5.335 82.34-16.168 26.498-10.832 52.157-27.176 76.827-48.84L438.005 667h250.998zM440.997 440.998c-25.496 23.168-48.325 40.5-68.663 51.833-20.338 11.51-38.333 17.17-54 17.17-12.497 0-20.838-4.496-25.171-13.339-4.495-8.99-6.662-25.835-6.662-50.491l.501-21.503V97.166c.325-26.336 1.504-42.665 3.493-49.165 3.832-14 13.338-21 28.34-21 16.168 0 33.5 6.16 51.833 18.333C388.84 57.507 412.332 78.67 440.997 109v331.997z" id="glyph82"/><glyph unicode="e" horiz-adv-x="598" d="M250.996 249.996V99.004c0-29.34 1.838-47.84 5.338-55.664C263.173 28.5 279.335 21 304.66 21c37.84 0 75.18 10.34 112.167 30.84 37.002 20.663 69.003 49.164 96.004 85.49 8.839 12 15.163 19.5 19.163 22.839 3.838 3.161 8.177 4.838 12.839 4.838 5.5 0 10.162-2 13.662-6 3.677-4.177 5.5-9.177 5.5-15.34 0-13.662-10.824-32-32.663-55.002-28.663-29.5-64.326-53.502-106.828-72.003C382.002-1.838 340.501-11 300.16-11c-69.488 0-130.668 23.34-183.832 69.827-31.001 27.34-54.664 61.002-71.326 101.004C30.339 194.993 23 230.17 23 265.335c0 33.825 6.5 67.664 19.5 101.828 13.163 34.001 31.002 63.34 53.826 88.004 26.502 29.001 57.68 51.502 93.843 67.326 35.663 15.677 72.826 23.501 111.49 23.501 60.34 0 115.005-17.824 163.845-53.326 76.327-55.502 114.167-135.83 113.49-241.172h-113.99l-147.006-.5-67.003-1zm126.006 34.002v141.668c-.662 30.5-1.338 48.663-2 54.664-.662 6-3 11.5-6.839 16.677-9.162 12.662-27.824 18.986-56.164 18.986-28.84 0-46.825-7.324-54.164-21.825-4.5-8.662-6.839-31.5-6.839-68.503V283.997l60.003-3 66.003 3z" id="glyph83"/><glyph unicode="f" horiz-adv-x="384" d="m315.999 504.993-1.5-146.654-1.5-181.846 3-156.992V.001H64.003v16.662l1.5 79.165 1.5 171.508-3 223.495v14.162h-8.662l-36.84-1c-14.339 0-21.5 5.5-21.5 16.501 0 11 6.661 16.5 20.162 16.5l23.677-1h28.487c4.5 27.502 10.339 48.841 17.339 64.503 6.838 15.501 17.662 30.34 32.34 44.84 40.825 40.502 98.827 60.665 174.33 60.665 37.164 0 69.827-5.662 98.167-16.839 28.324-11.162 42.502-24.001 42.502-38.502 0-5.5-2.177-10.324-6.677-14.5-4.324-4.162-9.5-6.162-15.324-6.162-6.5 0-12.84 3.5-19.001 10.662-7.839 9.677-13.839 16-18.163 19-4.176 2.839-9.338 4.34-15.177 4.34-16.662 0-28.325-9.501-35.163-28.502-6.839-19.001-10.5-52.164-10.662-99.505h45.502c2 0 6.323.177 12.824.677 5.5.162 10.838.323 15.677.323 13.486 0 20.163-5.662 20.163-17.162 0-10.839-8-16.339-24.002-16.339l-35.501 1-32.502.5z" id="glyph84"/><glyph unicode="h" horiz-adv-x="758" d="M305.002 464.001c31.33 21.16 56.827 36.67 76.83 46.332 48.832 23.83 97.34 35.668 145.17 35.668 34.494 0 65.67-6.174 93.497-18.506 27.673-12.331 48.169-29.324 61.504-50.823 16.004-25.666 24-72.832 24-141.512l-1.004-72.662-1.003-96.168L707.993 0H456.006L459 301.5l-2.994 154.167c-3.18 16.838-15.171 25.327-36.007 25.327-15.171 0-32.164-4.661-51.163-13.829-18.999-9.337-39.834-23.336-62.83-42.165l-1.004-122.498 1.667-212.168L307.996 0H56.997l1.004 206.164v235.164l-1.498 203.17.494 22.503h248.005V464z" id="glyph85"/><glyph unicode="i" horiz-adv-x="367" d="M180.493 705.002c86.342 0 129.506-22.501 129.506-67.503 0-21.84-11.339-38.825-34.002-51.164-22.824-12.162-54.664-18.339-96.004-18.339-81.989 0-122.99 23.177-122.99 69.503 0 44.34 41.163 66.841 123.49 67.503zm128.506-172.008v-14.162l-1.5-76.166-1.5-118.167-1.5-179.493 1.838-101.004L307 .001H57.003l1.824 179.67 1.176 158.669-1.5 83.327-2 92.827.5 18.501h251.996z" id="glyph86"/><glyph unicode="l" horiz-adv-x="362" d="m307.002 667.001.501-24.995-1.002-172.004-.501-74.175-1.002-135.322 2.004-241.507V0H57.006v23.005l1.164 77.668.663 140.657 1.165 184.34-.324 99.17-1.18 108.987.502 33.174h248.007z" id="glyph87"/><glyph unicode="m" horiz-adv-x="1155" d="M691.839 454.167c42.325 32.34 81.827 55.826 118.491 70.165 36.663 14.5 75.342 21.663 116.167 21.663 74.665 0 126.667-23.825 156.007-71.665 8.5-14.324 14.324-30.825 17.5-49.664 3.324-18.663 5.001-46.326 5.001-83.166l-2-128.829v-30.177l3-162.492.5-20.001h-250.51l1.837 154.33 2.162 155.33-.5 63.002c-.323 23.001-.323 36.502 0 40.502.338 25.663-2.5 43.502-8.324 53.164-5.838 9.839-16.5 14.677-31.84 14.677-16.323 0-34.324-4.676-53.825-14.177-19.34-9.5-40.34-23.662-63.003-43.002 1.662-12.662 2.5-30.824 2.5-54.664l-1-121.99-1-137.345c0-40.325.662-76.988 2-109.828H455.006l1.162 106.505L458.006 336c0 75.504-1 117.167-3 125.006-3.5 14-15.177 21.001-35.178 21.001-15 0-31.825-4.677-50.487-13.839-18.84-9.338-39.502-23.5-62.341-42.34l-2-206.494L307 .001H57.004v19.501l.661 88.828.339 121.005.5 117.167-1.5 186.494H307V464.83c36.501 27.34 72.841 47.664 109.167 61.002 36.34 13.501 72.503 20.163 108.667 20.163 54.34 0 98.166-13.662 131.329-40.825 13.338-10.662 25.177-27.663 35.678-51.002z" id="glyph88"/><glyph unicode="n" horiz-adv-x="753" d="M306.999 532.994v-67.988c38.002 27 75.342 47.325 111.667 60.826 36.502 13.5 71.841 20.163 106.328 20.163 46.178 0 85.18-10.5 117.005-31.664 24.163-16 40.34-35.663 48.502-59.326 8.339-23.5 12.5-62.002 12.5-115.343l-1-225.995 1-113.667H455.007l1.662 135.668 1.338 99.505-.5 150.168c-.338 34.825-.677 55.487-1.177 62.164-.5 6.662-2 12.663-4.662 17.825-5.162 10.5-16.339 15.677-33.501 15.677-15.84 0-33.002-4.5-51.502-13.677-18.325-9.163-38.326-23.001-59.665-41.326l-.338-20L306 268.997l-1-104.666 1.5-143.33.5-21H57.003l1.5 191.331 1.5 126.506-1.5 109.167-1.5 105.99H307z" id="glyph89"/><glyph unicode="o" horiz-adv-x="599" d="M300.503 546.004c52.496 0 102.162-14.502 148.999-43.506 43.329-26.66 76.327-63.166 99.17-109.325 20.161-40.676 30.33-83.843 30.33-129.338 0-31.17-5.998-62.665-17.832-94.174-11.835-31.657-28.164-59.658-48.664-83.99-28.665-33.5-63.667-58.834-105.006-75.664-33.838-14-69.164-21.001-105.994-21.001-61.5 0-117.003 18.157-166.168 54.662-38.333 28.002-67.499 64.006-87.336 107.836-16.668 37.169-24.995 76.327-24.995 117.666 0 80.837 29.328 147.834 87.999 201.17 55.001 49.49 118.167 74.661 189.498 75.664zm-14.502-31.008L285 22.004c10.169-.663 17.17-1.002 21.001-1.002 45.334 0 88.663 12.66 130.002 38.17 39.836 24.834 69.666 57.654 89.503 98.832 15.666 32.496 23.492 68.5 23.492 107.497 0 78.67-28.99 142.337-87.16 191.34-46.998 39.497-98.168 59.157-153.33 59.157-4.51 0-12.012-.324-22.505-1.002z" id="glyph90"/><glyph unicode="p" horiz-adv-x="729" d="M57.002 532.994h248.996l-1.5-64.326c33.002 28.34 63.165 48.325 90.666 60.002 27.34 11.5 57.503 17.325 90.504 17.325 67.665 0 122.505-25.002 164.493-75.166 37.84-44.825 56.84-101.828 56.84-171.169 0-73.665-21.662-134.329-64.84-181.832-39.987-43.825-89.99-65.826-149.83-65.826-31.502 0-63.003 6.662-94.166 19.824-31.163 13.177-62.326 33.002-93.166 59.503l.5-18 .5-63.989L307-4l.5-18.001H57.003l.324 139.006.676 129.167-1 269.82v17.002zm247.996-108.167V170.831c23.84-22.001 45.164-38.825 64.165-50.002 18.84-11.163 35.34-16.825 49.34-16.825 13.163 0 20.825 6.324 23.002 19.001.661 4.162 1.161 26.163 1.5 65.665v238.158c0 28.34-.5 45.178-1.5 50.679-2.177 13.662-9.177 20.5-20.501 20.5-14.678 0-32.502-6.676-53.341-19.839-20.824-13.162-41.825-31-62.664-53.34z" id="glyph91"/><glyph unicode="r" horiz-adv-x="530" d="m306.999 381.502-1-187.332 3-194.17H57.003l.662 26.84.5 99.666 1.838 178.993-2.338 199.17-.662 28.325H307V432.328c37.34 39.679 63.341 64.68 77.842 75.004 33.825 23.839 65.488 35.663 95.327 35.663 18.163 0 33.164-3.824 45.002-11.662 11.825-7.839 17.825-17.663 17.825-29.663 0-9.5-3.5-17.163-10.662-23.34-7.162-6.162-16.001-9.324-26.663-9.324-6.839 0-14.5 2-22.84 5.824-14.324 6.839-26.162 10.177-35.501 10.177-23.325 0-45.826-8-67.488-24.001-21.678-15.839-46.002-42.34-72.842-79.504z" id="glyph92"/><glyph unicode="s" horiz-adv-x="480" d="M47.166 89.994c6.497 0 15.001-5 25.172-14.832 16.329-15.325 39.495-28.66 69.668-39.664 30.158-11.005 58.324-16.499 84.654-16.499 12.178 0 21.175 2.006 27.18 6.174 6.157 4.167 9.167 10.155 9.167 17.995 0 7.995-4.167 17.502-12.347 28.491-8.319 11.004-26.824 32.01-55.824 62.846-70.671 74.669-116.34 127.33-137.006 157.656-20.496 30.513-30.837 59.667-30.837 87.68 0 24.493 7.177 47.829 21.345 70.161 14.168 22.333 34 41.332 59.328 56.997C149.83 533.005 197.999 546 252.496 546c40.174 0 82.508-8.504 127.174-25.496 34.834-13.335 52.335-27.843 52.335-43.508 0-4.83-2.006-9.168-6.173-13.165-3.997-3.828-8.674-5.834-13.998-5.834-6.174 0-17.842 6.004-34.834 17.996-34.665 24.678-72.508 37.01-113.33 37.01-14.338 0-25.343-2.33-32.674-6.837-7.33-4.507-11.004-11.498-11.004-20.836 0-11.158 6.837-25.002 20.342-41.995 13.504-16.838 40.992-45.329 82.833-85.843 40.668-39.325 66.504-65.161 77.493-77.323 10.834-12.162 21.344-26.176 31.5-42.165 17.178-27.333 25.836-56.997 25.836-88.837 0-50.16-24.324-90.673-73.002-121.664-39.834-25.666-88.821-38.507-146.82-38.507-64.668 0-122.005 14.338-172.01 42.999C51.502 40.668 41.501 47.83 36.007 53.34c-5.34 5.664-8.01 11.667-8.01 18.165 0 11.992 6.343 18.166 19.168 18.49z" id="glyph93"/><glyph unicode="t" horiz-adv-x="432" d="m326 706.002-5.338-157.83-.5-15.177c28.339 0 54.002 1.176 77.165 3.338 3.838.339 7.338.5 10.177.5 14.324 0 21.5-6.5 21.5-19.5 0-12.163-7.5-18.163-22.339-18.163-4.662 0-10.338.338-17.162.838-25.501 1.985-43.84 2.986-54.84 2.986H320.5l-.5-94.99 1.662-190.508L323 115.83c0-23.825 1.838-40.325 5.338-49.826 3.662-9.338 10-14.162 18.825-14.162 11.838 0 24.339 6.824 37.84 20.486 13.162 13.677 23.5 30.501 31.001 50.34 6.824 18.84 15 28.34 24.325 28.34 11.177 0 16.677-6.177 16.677-18.5 0-12.34-5.5-27.84-16.677-46.18-11-18.323-24.502-34.324-40.002-47.987-38.487-33.501-88.49-50.34-149.83-50.34-57.665 0-102.328 17.339-133.991 52.164-16.177 17.663-27.501 37.163-33.678 58.84-6.162 21.664-9.324 51.665-9.324 90.167v36.501l.5 102.99v174.831c-4.5.338-7.839.5-9.839.5-3.162 0-9.824-.323-19.5-1-8.163-.662-15.163-1-20.663-1C8 501.994 0 508.333 0 520.834c0 12 7.663 18.162 23.001 18.162 7.163 0 12.34-.162 15.163-.5l35.84-2.5v55.179C170.33 626 254.334 664.34 326 706.004z" id="glyph94"/><glyph unicode="u" horiz-adv-x="754" d="m698.495 533.005-1.489-383.668L698.495-.001H447.998v68.84c-41.163-28.34-78.832-48.679-112.832-61.176-33.838-12.498-69.326-18.658-106.333-18.658-67.838 0-117.165 20.16-147.672 60.498-11.333 15.003-19.16 31.996-23.654 51.17-4.333 18.996-6.5 45.996-6.5 81.16l.988 114.335.501 76.165-3.493 160.67h250.998l-3.006-245.338.5-92.995.502-62.503c0-37.508 2.166-59.998 6.838-67.5 5.497-8.503 15.829-12.674 31.17-12.674 15.49 0 31.657 4.01 48.488 12.174 16.668 8.165 38.347 22.666 65.008 43.506l.501 64.153 1.002 174.51-3.006 171.503v15.165h250.497z" id="glyph95"/><glyph unicode="y" horiz-adv-x="603" d="M427.999 289.995c63.667 97.343 110.341 171.179 140.009 221.346 10.331 17.155 16.83 27.324 19.498 30.33 2.49 2.83 6.322 4.333 11.157 4.333 6.499 0 12.335-2.505 17.508-7.34 5.158-4.833 7.826-10.33 7.826-16.668 0-4.834-2.83-10.655-8.327-17.493C568.833 440.673 509.66 354 437.83 244.662l-85.833-131.49C322.33 68.339 297.836 35.828 278.5 16.168c-14.325-14.001-31.494-25.334-51.331-34-19.837-8.828-38.834-13.16-57.168-13.16-17.995 0-32.836 3.492-44.493 10.492-11.673 7-17.509 15.829-17.509 26.661 0 6.838 2.668 12.674 7.84 17.508 5.159 4.834 11.496 7.325 18.998 7.325 5.497 0 16.329-3.832 32.334-11.495 10.331-4.996 19.336-7.502 26.823-7.502 14.679 0 28.503 4.51 41.84 13.5 13.161 8.843 27.5 23.669 43.167 44.169l-57.669 90.328C97.505 352.999 14.665 477.327-26.998 533.006h310.17c19.498-42.666 42.003-85.17 67.5-127.835 25.496-42.666 51.169-80.999 77.328-115.175z" id="glyph96"/><glyph unicode="ü" horiz-adv-x="754" d="m698.501 533.005-1.497-383.668L698.5 0H447.996v68.835C406.834 40.498 369.16 20.172 335.16 7.67c-33.83-12.502-69.329-18.675-106.323-18.675-67.831 0-117.173 20.172-147.67 60.5-11.328 15.002-19.169 32.01-23.66 51.163-4.337 19.014-6.513 46.008-6.513 81.182l1.003 114.333.51 76.165-3.504 160.666h250.999l-2.994-245.335.494-93.004.494-62.507c0-37.488 2.176-59.99 6.837-67.491 5.494-8.504 15.835-12.672 31.16-12.672 15.511 0 31.67 3.998 48.509 12.178 16.668 8.164 38.337 22.656 64.991 43.492l.51 64.174 1.003 174.494-3.01 171.5v15.171h250.505zm-203 196.997c28.506 0 51.502-6.174 68.665-18.335 17.162-12.332 25.836-28.66 25.836-49.172 0-21.33-8.828-38.492-26.33-51.657s-40.174-19.832-68.171-19.832c-27.997 0-50.67 6.327-68.17 18.829-17.503 12.501-26.33 29-26.33 49.172 0 21.16 8.503 38.322 25.496 51.163 17.162 12.825 40.174 19.492 69.004 19.832zm-243.499 0c28.83 0 51.996-6.174 69.159-18.335 17.177-12.332 25.836-28.66 25.836-49.172 0-21.33-8.828-38.492-26.33-51.657s-40.174-19.832-68.171-19.832c-27.997 0-50.67 6.327-68.156 18.829-17.502 12.501-26.345 29-26.345 49.172 0 21.16 8.504 38.322 25.512 51.163 17.162 12.825 39.989 19.492 68.495 19.832z" id="glyph97"/></font>
</defs>
</svg>
